Szogun - Shogun DVD 1/2 (1980) [DVDRip.x264.AC3][Napisy PL][Eng]

Movies



SIZE: 5.41 GB






Description



image



The file containing - sample!!!

Plik zawiera - sample !!!




gatunek: Przygodowy, Dramat historyczny

premiera: 15 września 1980 (świat) 1980-09-15

produkcja: Japonia, USA

reżyseria: Jerry London

scenariusz: Eric Bercovici

muzyka: Maurice Jarre

zdjęcia: Andrew Laszlo

czas trwania:

cd1. 01:44:23

cd2. 02:07:27



Opis Filmu:



A English navigator becomes both a player and pawn in the complex

political games in feudal Japan.



Jest to pierwsza i druga część pięcio płytowego wydania na DVD "Szoguna".



Początek XVII wieku. Anglik John Blackthorne jest nawigatorem na

holenderskim okręcie, który rozbija się w feudalnej Japonii, będą

cej w Portugalskiej strefie wpływów. Blackthorne musi nauczyć się

żyć po japońsku, a wkrótce wplątuje się w ich wewnętrzne spory

polityczne oraz kulturę.



Subtitles:



Polish, Spanish, French, Hebrew, Croatian, Icelandic, Hungarian, Dutch,

Norwegian, Portuguese, Romanian, Slovenian, Serbian, Finnish, Swedish,

Turkish.




image

image

image

image



Obsada:



Richard Chamberlain: John Blackthorne

Toshirô Mifune: Lord Toranaga

Yôko Shimada: Mariko

Frankie Sakai: Lord Yabu



Dane techniczne:



Shogun- (1980) DVD1-alE13.mkv

Format : Matroska

Format version : Version 2

File size : 1.49 GiB

Duration : 1h 44mn

Overall bit rate : 2 039 Kbps

Movie name : Shogun- p1(1980)-alE13

Encoded date : UTC 2013-02-23 00:54:43

Writing application : mkvmerge v5.8.0 ('No Sleep / Pillow') built on Sep 2 2012 15:37:04

Writing library : libebml v1.2.3 + libmatroska v1.3.0



Video

ID : 1

Format : AVC

Format/Info : Advanced Video Codec

Format profile : Main@L3.0

Format settings, CABAC : Yes

Format settings, ReFrames : 4 frames

Muxing mode : Header stripping

Codec ID : V_MPEG4/ISO/AVC

Duration : 1h 44mn

Bit rate : 1 166 Kbps

Width : 720 pixels

Height : 544 pixels

Display aspect ratio : 4:3

Frame rate mode : Constant

Frame rate : 25.000 fps

Color space : YUV

Chroma subsampling : 4:2:0

Bit depth : 8 bits

Scan type : Progressive

Bits/(Pixel*Frame) : 0.119

Stream size : 871 MiB (57%)

Writing library : x264 core 112

Language : English

Color primaries : BT.601 NTSC

Transfer characteristics : BT.709

Matrix coefficients : BT.601



Audio #1 : English

ID : 25

Format : AC-3

Format/Info : Audio Coding 3

Mode extension : CM (complete main)

Format settings, Endianness : Big

Muxing mode : Header stripping

Codec ID : A_AC3

Duration : 1h 44mn

Bit rate mode : Constant

Bit rate : 448 Kbps

Channel(s) : 6 channels

Channel positions : Front: L C R, Side: L R, LFE

Sampling rate : 48.0 KHz

Bit depth : 16 bits

Compression mode : Lossy

Stream size : 335 MiB (22%)



Audio #2 :Espnol

ID : 26

Format : AC-3

Format/Info : Audio Coding 3

Mode extension : CM (complete main)

Format settings, Endianness : Big

Muxing mode : Header stripping

Codec ID : A_AC3

Duration : 1h 44mn

Bit rate mode : Constant

Bit rate : 192 Kbps

Channel(s) : 2 channels

Channel positions : Front: L R

Sampling rate : 48.0 KHz

Bit depth : 16 bits

Compression mode : Lossy

Stream size : 143 MiB (9%)

Default : No

Forced : No



Audio #3 : Francais

ID : 27

Format : AC-3

Format/Info : Audio Coding 3

Mode extension : CM (complete main)

Format settings, Endianness : Big

Muxing mode : Header stripping

Codec ID : A_AC3

Duration : 1h 44mn

Bit rate mode : Constant

Bit rate : 192 Kbps

Channel(s) : 2 channels

Channel positions : Front: L R

Sampling rate : 48.0 KHz

Bit depth : 16 bits

Compression mode : Lossy

Stream size : 143 MiB (9%)


Comments





Tags


Including results for shogun shogun dvd 11980 . Do you want results only for Szogun - Shogun DVD 1(1980) [DVDRip.x264.AC3][Napisy PL][Eng] ? Shogun (TV Mini-Series 1980 ) - IMDb Rating: 8.2 7,221 ratings · Adventure 60 min 1 2 3 4 5 6 7 8 9 10-10 X . Ratings: Title: Shogun ( 1980 – ) DVD & Blu-ray: Amazon India Buy Movie and TV Show DVDs : DPReview x264 :: Szogun - Shogun DVD 1(1980 ) [DVDRip.x264.AC3 torrenty.orgShogun ( 1980 ) DVD2-alE13.mkv 3.89 GB Shogun - ( 1980 ) DVD1-alE13.mkv 1.49 GB sample.mkv 25.27 MB Shogun .jpg 2.51 MB Shogun D1.jpg 721.67 KB Shogun D2.jpg 709.89 KB Shōgun (TV miniseries) - Wikipedia, the free encyclopedia en.wikipedia.orgPlot  · Episode guide  · Cast  · Reception  · Awards 2.3 DVD release; 3 Cast; 4 Reception. 4.1 Sexuality and violence; 5 Awards; 6 See also; 7 References; 8 External links; Plot . Shogun , which aired in 1980 , Shogun (TV Movie 1980 ) - IMDb Rating: 7.8 2,655 ratings · Adventure 125 min Shogun ( 1980 ) TV Movie 1 2 3 4 5 6 7 8 9 10-10 X . Ratings: 7.8 10 from 2,655 users Reviews: DVD & Blu-ray: Amazon Italy Buy Movies on Szogun - Shogun DVD 1(1980 ) [DVDRip.x264][Napisy PL Download - Szogun - Shogun DVD 1(1980 ) [DVDRip.x264][Napisy PL][Eng] torrent from 1click Szogun - Shogun DVD 1(1980 ) [DVDRip.x264.AC3][Napisy PL axxotorrent.comSzogun-shogun-dvd-1-2-1980 - dvd rip-xSzogun - Shogun DVD 1(1980 ) [DVDRip.x264.AC3][Napisy PL][Eng] Torrent Download Szogun - Shogun DVD 1(1980 ) [DVDRip.x264.AC3][Napisy PL aletorrenty.plObsada: Richard Chamberlain: John Blackthorne Toshirô Mifune: Lord Toranaga Yôko Shimada: Mariko Frankie Sakai: Lord Yabu Dane techniczne: Shogun - ( 1980 ) DVD1-alE13.mkv James Clavell's Shogun ( 1980 ) ( DVD 2003) - Amazon Shogun -Richard-ChamberlainRating: 4.6 422 reviews  · Richard Chamberlain · DVD  · NR James Clavell's Shogun ( 1980 ) Richard Chamberlain (Actor), Toshirô Mifune (Actor), Jerry London (Director) | Rated: NR | Format: DVD . Szogun - Shogun DVD 1(1980 ) [DVDRip.x264][Napisy PL torrent.zoozle.orgszogun + shogun + dvd + 1+2 Szogun Shogun DVD 1 2 1980 DVDRip x264Napisy PLEng Download Torrent; DOWNLOAD Szogun - Shogun DVD 1(1980 ) [DVDRip.x264][Napisy PL][Eng] possibly with 100 Mbitshogun dvd | eBay - Electronics, Cars, Fashion shogun + dvd Find great deals on eBay for shogun dvd and shogun dvd mini series. Shop with confidence. Including results for shogun shogun dvd 11980 . Do you want results only for Szogun - Shogun DVD 1(1980) [DVDRip.x264.AC3][Napisy PL][Eng] ? Pagination 1 2 3 4 5 Next
cde:QzpcIVBBUlNFXGtpY2tcc3pvZ3VuLXNob2d1bi1kdmQtMS0yLTE5ODAtZHZkcmlwLXgyNjQtYWMzLW5hcGlzeS1wbC1lbmctdDcxMjc2OTMudHh0:cde